Torrent details for "Feeder - Tallulah (2019) [24bit Hi-Res]"    Log in to bookmark

Loading...
Loading...
Torrent details
Cover
Download
Torrent rating (0 rated)
Controls:
Category:
Language:
English English
Total Size:
545.23 MB
Info Hash:
dcfcd8f4657c849f56b7d40cf6d8bc410c078459
Added By:
was95:_trusted_uploader::_sun:  
Added:  
14-08-2019 07:38
Views:
60
Health:
Seeds:
12
Leechers:
6
Completed:
103

File List (18) : 

Description


Quality-Lossless
Release-2019
Duration-00:45:52
File Size-571.7 MB
Genre-Rock
Cover Size-1400px

----------------------------------------------------------------------------------------------
Analyzed: Tallulah /  Artist: Feeder
----------------------------------------------------------------------------------------------
DR Peak RMS Duration Title [codec]
----------------------------------------------------------------------------------------------
DR5 -1.07 dB -7.45 dB 3:18 01 - Youth [flac]
DR5 -0.98 dB -7.29 dB 3:50 02 - Blue Sky Blue [flac]
DR6 -1.04 dB -8.49 dB 3:46 03 - Daily Habit [flac]
DR5 -0.99 dB -7.07 dB 3:56 04 - Fear of Flying [flac]
DR5 -1.03 dB -7.57 dB 3:33 05 - Rodeo [flac]
DR5 -1.01 dB -8.12 dB 3:52 06 - Tallulah [flac]
DR5 -1.01 dB -7.54 dB 4:16 07 - Shapes and Sounds [flac]
DR5 -0.95 dB -7.48 dB 3:43 08 - Guillotine [flac]
DR5 -1.07 dB -7.58 dB 4:30 09 - Kyoto [flac]
DR6 -1.04 dB -8.40 dB 3:25 10 - Kite [flac]
DR5 -1.12 dB -7.95 dB 4:08 11 - Windmill [flac]
DR8 -4.06 dB -13.50 dB 3:31 12 - Lonely Hollow Days [flac]
----------------------------------------------------------------------------------------------
Number of files:    12
Official DR value:  DR5

Sampling rate: 44100 Hz
Average bitrate: 1655kbs
Bits per sample: 24 bit

Similar torrents

Name 
DL
Uploader
Size 
S/L 
Added
-
12.80 MB
109
[1/3]
21/04/19 11:26
-
12.43 MB
128
[1/3]
10/05/19 19:45
-
12.81 MB
185
[0/0]
13/06/19 09:54

  User comments

No comments have been posted yet.


Post anonymous comment
:) :( :D :P :-) B) 8o :? 8) ;) :-* :-( :| O:-D :-@ :facepalm :o) brb :warn :help :bad :love :idea :bomb :!


CAPTCHA Image