Torrent details for "Jan Felix Band - Sunflower (2019) [24bit Hi-Res]"    Log in to bookmark

Loading...
Loading...
Torrent details
Cover
Download
Torrent rating (0 rated)
Controls:
Category:
Language:
English English
Total Size:
515.68 MB
Info Hash:
2be5de39df6df2bcd09f26274c3611770a149eb4
Added By:
was95:_trusted_uploader::_sun:  
Added:  
14-08-2019 08:08
Views:
55
Health:
Seeds:
8
Leechers:
2
Completed:
56

File List (18) : 

Description


Quality-Lossless
Release-2019
Duration-00:45:24
File Size-540.7 MB
Genre-Pop
Cover Size-1400px

----------------------------------------------------------------------------------------------
Analyzed: Sunflower /  Artist: Jan Felix Band
----------------------------------------------------------------------------------------------
DR Peak RMS Duration Title [codec]
----------------------------------------------------------------------------------------------
DR12 -1.01 dB -14.21 dB 3:41 01 - Don't Wanna Die Now [flac]
DR9 -1.00 dB -13.97 dB 3:20 02 - Florentine [flac]
DR10 -1.01 dB -13.72 dB 4:00 03 - Hotel Room [flac]
DR11 -1.02 dB -13.37 dB 3:58 04 - Sunflower [flac]
DR8 -1.01 dB -14.18 dB 4:12 05 - Between The Blankets and The Sheets [flac]
DR9 -1.01 dB -12.53 dB 4:01 06 - Man Of Your Dreams [flac]
DR11 -1.00 dB -13.27 dB 3:50 07 - Follow Your Heart [flac]
DR10 -1.01 dB -13.51 dB 3:43 08 - When I Was 18 [flac]
DR9 -1.01 dB -13.15 dB 3:39 09 - Little Moments Of Peace [flac]
DR8 -1.01 dB -14.32 dB 3:41 10 - Emptiness [flac]
DR9 -1.01 dB -13.13 dB 3:54 11 - The True Concept Of Rain [flac]
DR12 -1.01 dB -14.01 dB 3:14 12 - Wild Winds [flac]
----------------------------------------------------------------------------------------------
Number of files:    12
Official DR value:  DR10

Sampling rate: 44100 Hz
Average bitrate: 1583kbs
Bits per sample: 24 bit

Similar torrents

  No similar torrents were found.

  User comments

No comments have been posted yet.


Post anonymous comment
:) :( :D :P :-) B) 8o :? 8) ;) :-* :-( :| O:-D :-@ :facepalm :o) brb :warn :help :bad :love :idea :bomb :!


CAPTCHA Image