Torrent details for "Godzilla 2014 BR EAC3 VFF VFQ ENG 1080p x265 10Bits T0M"    Log in to bookmark

Loading...
Loading...
Torrent details
Cover
Download
Torrent rating (0 rated)
Controls:
Category:
Language:
French French
Total Size:
4.00 GB
Info Hash:
ef69e67aa0d5740fcfd7b04fa651c99464c137dd
Added By:
T0M:_trusted_uploader::_junkie:  
Added:  
14-08-2019 08:45
Views:
63
Health:
Seeds:
3
Leechers:
4
Completed:
22

File List (1) : 
Title:
Godzilla (2014)
Genre:
Action, Adventure, Sci-Fi, Thriller
Runtime:
123 min    -    Rating: 6.4
Plot:
In 1999, the Janjira nuclear plant was mysteriously destroyed with most hands lost including supervisor Joe Brody's colleague and wife, Sandra. Years later, Joe's son, Ford, a US Navy ordnance disposal officer, must go to Japan to help his estranged father who obsessively searches for the truth of the incident. In doing so, father and son discover the disaster's secret cause on the wreck's very grounds. This enables them to witness the reawakening of a terrible threat to all of Humanity, which is made all the worse with a second secret revival elsewhere. Against this cataclysm, the only hope for the world may be Godzilla, but the challenge for the King of the Monsters will be great even as Humanity struggles to understand the destructive ally they have.

Description

______________________________________________________________________________________________________________
Godzilla 2014
Bluray · 1080p x265 10bits · DD+ 5.1 VFF VFQ ENG
¯¯¯¯¯¯¯¯¯¯¯¯¯¯¯¯¯¯¯¯¯¯¯¯¯¯¯¯¯¯¯¯¯¯¯¯¯¯¯¯¯¯¯¯¯¯¯¯¯¯¯¯¯¯¯¯¯¯¯¯¯¯¯¯¯¯¯¯¯¯¯¯¯¯¯¯¯¯¯¯



Year : 2014
Country : United States, Japan
Original title : Godzilla
Director : Gareth Edwards
Music from : Alexandre Desplat
Actors : Aaron Taylor-Johnson, CJ Adams, Ken Watanabe, Bryan Cranston
Elizabeth Olsen, Carson Bolde, Sally Hawkins, Juliette Binoche, David Strathairn
Genre : Sci-Fi, Action, Adventure, War
Certificate :  Scenes, comments, or images may offend viewers' sensibilities
Budget : 160 000 000 $ · Recipe : 564 879 254 $ · ratio : 353 %
Link : Allociné 2,9/5 ·  IMDB 6,4/10 ·  TMDB 61% ·  SensCritique 5,3/10 ·  Wiki ·  Bande Annonce

French Plot
Le physicien nucléaire Joseph Brody enquête sur de mystérieux phénomènes qui ont lieu au Japon, quinze ans après un incident qui a irradié la région de Tokyo et déchiré sa propre famille. Refusant de s’en tenir à la version officielle qui évoque un tremblement de terre, le scientifique revient sur les lieux du drame accompagné par son fils Ford, soldat dans la Navy. Ils découvrent que les incidents ne sont pas liés à une catastrophe naturelle, mais à des monstres réveillés par des essais nucléaires dans le Pacifique au lendemain de la Seconde Guerre mondiale. Ces créatures sont surveillées par une organisation nommée Monarch, mais elles menacent bientôt la sécurité de l'archipel d'Hawaï et la côte Ouest des États-Unis. Au même moment, la compagne de Ford, infirmière et jeune maman, gère les blessés dans un hôpital de San Francisco.
Basé sur : les personnages du film Godzilla crèer par Tōhō (東宝株式会社) en 1954


If you enjoy and wish to support, please stay in seeding


Technical Details
¯¯¯¯¯¯¯¯¯¯¯¯¯¯¯¯¯¯¯¯¯¯¯¯¯¯¯¯¯¯¯¯¯¯¯¯¯¯¯¯¯¯¯¯¯¯¯¯¯¯¯¯¯¯¯¯¯¯¯¯¯¯¯¯¯¯¯¯¯¯¯¯¯¯¯¯¯¯¯¯¯¯¯¯¯¯¯¯¯¯¯¯¯¯¯¯¯¯¯¯
       
Media
Matroska 4,00Gio 2h03mn 4654Kbps
Video
HEVC/H265 1920x800 @23.976 [email protected]@Main 10bits 3293Kbps Slower
Audio
   True French 5.1 EAC3 448Kbps 48KHz 16bits
   Quebec French 5.1 AC3 448Kbps 48KHz 16bits
   English 5.1 EAC3 448Kbps 48KHz 16bits
Subtitles
 True French forced SRT
 True French full SRT
   English full SDH PGS
Chapters
International
Screenshot
 

NFO
¯¯¯¯¯¯¯¯¯¯¯¯¯¯¯¯¯¯¯¯¯¯¯¯¯¯¯¯¯¯¯¯¯¯¯¯¯¯¯¯¯¯¯¯¯¯¯¯¯¯¯¯¯¯¯¯¯¯¯¯¯¯¯¯¯¯¯¯¯¯¯¯¯¯¯¯¯¯¯¯¯¯¯¯¯¯¯¯¯¯¯¯¯¯¯¯¯¯¯¯

General
Format                                   : Matroska
Format version                           : Version 4
File size                                : 4.00 GiB
Duration                                 : 2 h 3 min
Overall bit rate                         : 4 654 kb/s
Movie name                               : Godzilla 2014 de Gareth Edwards avec Aaron Taylor-Johnson, Bryan Cranston, Ken Watanabe, Elizabeth Olsen, Juliette Binoche, Sally Hawkins (Heurte la sensibilité) ballocine=179616,imdb=tt0831387B
Encoded date                             : UTC 2018-11-03 19:48:19
Writing application                      : mkvmerge v8.0.0 ('Til The Day That I Die') 64bit
Writing library                          : libebml v1.3.1 + libmatroska v1.4.2
Cover                                    : Yes
Attachments                              : Cover.jpg / Cover2.jpg / Cover3.jpg / Cover4.jpg / Poster.jpg

Video
ID                                       : 1
Format                                   : HEVC
Format/Info                              : High Efficiency Video Coding
Format profile                           : Main [email protected]@Main
Codec ID                                 : V_MPEGH/ISO/HEVC
Duration                                 : 2 h 3 min
Bit rate                                 : 3 293 kb/s
Width                                    : 1 920 pixels
Height                                   : 800 pixels
Display aspect ratio                     : 2.40:1
Frame rate mode                          : Constant
Frame rate                               : 23.976 (24000/1001) FPS
Color space                              : YUV
Chroma subsampling                       : 4:2:0
Bit depth                                : 10 bits
Bits/(Pixel*Frame)                       : 0.089
Stream size                              : 2.83 GiB (71%)
Title                                    : Video HEVC 1920x800 @23.976 x265 [email protected]@Main 10bits slower 1506mn
Writing library                          : x265 1.9:[Windows][GCC 4.9.2][64 bit] 10bit
Encoding settings                        : wpp / ctu=64 / min-cu-size=8 / max-tu-size=32 / tu-intra-depth=2 / tu-inter-depth=2 / me=3 / subme=3 / merange=57 / rect / amp / max-merge=3 / temporal-mvp / no-early-skip / rdpenalty=0 / no-tskip / no-tskip-fast / strong-intra-smoothing / no-lossless / no-cu-lossless / no-constrained-intra / no-fast-intra / open-gop / no-temporal-layers / interlace=0 / keyint=240 / min-keyint=24 / scenecut=40 / rc-lookahead=30 / lookahead-slices=4 / bframes=8 / bframe-bias=0 / b-adapt=2 / ref=4 / limit-refs=2 / limit-modes / weightp / weightb / aq-mode=1 / qg-size=32 / aq-strength=1.00 / cbqpoffs=0 / crqpoffs=0 / rd=6 / psy-rd=2.00 / rdoq-level=2 / psy-rdoq=1.00 / signhide / deblock / sao / no-sao-non-deblock / b-pyramid / cutree / no-intra-refresh / rc=crf / crf=18.0 / qcomp=0.60 / qpmin=0 / qpmax=51 / qpstep=4 / ipratio=1.40 / pbratio=1.30
Default                                  : Yes
Forced                                   : No
Color range                              : Limited
Color primaries                          : BT.709
Transfer characteristics                 : BT.709
Matrix coefficients                      : BT.709

Audio #1
ID                                       : 2
Format                                   : E-AC-3
Format/Info                              : Enhanced AC-3
Commercial name                          : Dolby Digital Plus
Codec ID                                 : A_EAC3
Duration                                 : 2 h 3 min
Bit rate mode                            : Constant
Bit rate                                 : 448 kb/s
Channel(s)                               : 6 channels
Channel layout                           : L R C LFE Ls Rs
Sampling rate                            : 48.0 kHz
Frame rate                               : 31.250 FPS (1536 SPF)
Compression mode                         : Lossy
Delay relative to video                  : -5 ms
Stream size                              : 395 MiB (10%)
Title                                    : Français 5.1 EAC3 448kbps 48khz 16bits
Language                                 : French
Service kind                             : Complete Main
Default                                  : Yes
Forced                                   : No

Audio #2
ID                                       : 3
Format                                   : AC-3
Format/Info                              : Audio Coding 3
Commercial name                          : Dolby Digital
Codec ID                                 : A_AC3
Duration                                 : 2 h 3 min
Bit rate mode                            : Constant
Bit rate                                 : 448 kb/s
Channel(s)                               : 6 channels
Channel layout                           : L R C LFE Ls Rs
Sampling rate                            : 48.0 kHz
Frame rate                               : 31.250 FPS (1536 SPF)
Bit depth                                : 16 bits
Compression mode                         : Lossy
Delay relative to video                  : -83 ms
Stream size                              : 395 MiB (10%)
Title                                    : Québécois 5.1 AC3 448kbps 48khz 16bits (original)
Language                                 : French
Service kind                             : Complete Main
Default                                  : No
Forced                                   : No

Audio #3
ID                                       : 4
Format                                   : E-AC-3
Format/Info                              : Enhanced AC-3
Commercial name                          : Dolby Digital Plus
Codec ID                                 : A_EAC3
Duration                                 : 2 h 3 min
Bit rate mode                            : Constant
Bit rate                                 : 448 kb/s
Channel(s)                               : 6 channels
Channel layout                           : L R C LFE Ls Rs
Sampling rate                            : 48.0 kHz
Frame rate                               : 31.250 FPS (1536 SPF)
Compression mode                         : Lossy
Delay relative to video                  : -5 ms
Stream size                              : 395 MiB (10%)
Title                                    : English 5.1 EAC3 448kbps 48khz 16bits
Language                                 : English
Service kind                             : Complete Main
Default                                  : No
Forced                                   : No

Text #1
ID                                       : 5
Format                                   : UTF-8
Codec ID                                 : S_TEXT/UTF8
Codec ID/Info                            : UTF-8 Plain Text
Duration                                 : 2 h 3 min
Bit rate                                 : 0 b/s
Count of elements                        : 19
Stream size                              : 699 Bytes (0%)
Title                                    : Français forcé (Passages)
Language                                 : French
Default                                  : Yes
Forced                                   : Yes

Text #2
ID                                       : 6
Format                                   : UTF-8
Codec ID                                 : S_TEXT/UTF8
Codec ID/Info                            : UTF-8 Plain Text
Duration                                 : 2 h 3 min
Bit rate                                 : 30 b/s
Count of elements                        : 1004
Stream size                              : 27.3 KiB (0%)
Title                                    : Français complet (Tous le film)
Language                                 : French
Default                                  : No
Forced                                   : No

Text #3
ID                                       : 7
Format                                   : PGS
Muxing mode                              : zlib
Codec ID                                 : S_HDMV/PGS
Codec ID/Info                            : Picture based subtitle format used on BDs/HD-DVDs
Duration                                 : 2 h 1 min
Bit rate                                 : 12.1 kb/s
Count of elements                        : 2902
Stream size                              : 10.5 MiB (0%)
Title                                    : English full SDH PGS
Language                                 : English
Default                                  : No
Forced                                   : No

Menu
00:00:00.000                             : :01 - 00:00:00
00:09:22.562                             : :02 - 00:09:22
00:19:03.225                             : :03 - 00:19:03
00:30:25.532                             : :04 - 00:30:25
00:39:10.098                             : :05 - 00:39:10
00:49:43.439                             : :06 - 00:49:43
00:59:27.189                             : :07 - 00:59:27
01:09:50.186                             : :08 - 01:09:50
01:19:11.246                             : :09 - 01:19:11
01:29:57.267                             : :10 - 01:29:57
01:40:14.759                             : :11 - 01:40:14
01:52:14.728                             : :12 - 01:52:14
01:56:10.088                             : :13 - 01:56:10



  User comments

No comments have been posted yet.


Post anonymous comment
:) :( :D :P :-) B) 8o :? 8) ;) :-* :-( :| O:-D :-@ :facepalm :o) brb :warn :help :bad :love :idea :bomb :!


CAPTCHA Image