Torrent details for "Godzilla 1998 BR EAC3 VFF VFQ ENG 1080p x265 10Bits T0M"    Log in to bookmark

Loading...
Loading...
Torrent details
Cover
Download
Torrent rating (0 rated)
Controls:
Category:
Language:
French French
Total Size:
4.26 GB
Info Hash:
18c38907f1ad70b309be11de66fb135f98279a3e
Added By:
T0M:_trusted_uploader::_junkie:  
Added:  
14-08-2019 08:48
Views:
49
Health:
Seeds:
5
Leechers:
7
Completed:
9

File List (1) : 
Title:
Godzilla (1998)
Genre:
Action, Sci-Fi, Thriller
Runtime:
139 min    -    Rating: 5.3
Plot:
Following the French atomic bomb tests in the South Pacific, an unknown creature is spotted passing eastward through the Panama Canal. Scientist Niko Tatopolous is called in to investigate the matter, and he quickly arrives at the conclusion that a giant, irradiated lizard has been created by the explosions. Godzilla then makes its way north, landing at Manhattan to begin wreaking havoc in the big city. Even with the combined forces of the U.S. military to fight the monster, will it be enough to save the people of New York?

Description

______________________________________________________________________________________________________________
Godzilla 1998
Bluray · 1080p x265 10bits · DD+ 5.1 VFF VFQ ENG
¯¯¯¯¯¯¯¯¯¯¯¯¯¯¯¯¯¯¯¯¯¯¯¯¯¯¯¯¯¯¯¯¯¯¯¯¯¯¯¯¯¯¯¯¯¯¯¯¯¯¯¯¯¯¯¯¯¯¯¯¯¯¯¯¯¯¯¯¯¯¯¯¯¯¯¯¯¯¯¯



Year : 1998
Country : United States
Original title : Godzilla
Director : Roland Emmerich
Music from : David Arnold
Actors : Matthew Broderick, Jean Reno, Maria Pitillo, Hank Azaria, Kevin Dunn
Michael Lerner, Harry Shearer, Arabella Field, Vicki Lewis, Doug Savant, Malcolm Danare
Genre : Sci-Fi, Fantasy, Action, Thriller
Certificate :  All public
Budget : 125 000 000 $ · Recipe : 379 014 294 $ · ratio : 303 %
Link : Allociné 2,3/5 ·  IMDB 5,3/10 ·  TMDB 55% ·  SensCritique 4,8/10 ·  Wiki ·  Bande Annonce

French Plot
Une tempête effroyable se dechaîne sur le Pacifique, engloutissant un pétrolier tandis qu'un immense éclair illumine le ciel au-dessus de la Polynésie française. Des empreintes géantes creusent un inquiétant sillon à travers des milliers de kilomètres de forêts et de plages au Panama. Les navires chavirent au large des côtes américaines et ces horribles phénomènes s'approchent de plus en plus près de New York. Le chercheur Nick Tatopoulos est arraché à ses recherches afin d'aider les Etats-Unis à traquer le monstre qui est à l'origine de ces désastres mystérieux.
Basé sur : les personnages du film Godzilla crèer par Tōhō (東宝株式会社) en 1954


If you enjoy and wish to support, please stay in seeding


Technical Details
¯¯¯¯¯¯¯¯¯¯¯¯¯¯¯¯¯¯¯¯¯¯¯¯¯¯¯¯¯¯¯¯¯¯¯¯¯¯¯¯¯¯¯¯¯¯¯¯¯¯¯¯¯¯¯¯¯¯¯¯¯¯¯¯¯¯¯¯¯¯¯¯¯¯¯¯¯¯¯¯¯¯¯¯¯¯¯¯¯¯¯¯¯¯¯¯¯¯¯¯
       
Media
Matroska 4,26Gio 2h18mn 4392Kbps
Video
HEVC/H265 1920x800 @23.976 [email protected]@Main 10bits 3050Kbps VerySlow
Audio
   True French 5.1 EAC3 448Kbps 48KHz 16bits
   Quebec French 5.1 AC3 384Kbps 48KHz 16bits
   English 5.1 EAC3 448Kbps 48KHz 16bits
Subtitles
 True French forced SRT
 True French full SRT
 True French forcé/full PGS
 True French Commentary by Volker Engel and Karen Goulekas PGS
 English full PGS
   English full SDH PGS
 English commentary by Volker Engel and Karen Goulekas PGS
Chapters
International,   True French,   English
Screenshot
 

NFO
¯¯¯¯¯¯¯¯¯¯¯¯¯¯¯¯¯¯¯¯¯¯¯¯¯¯¯¯¯¯¯¯¯¯¯¯¯¯¯¯¯¯¯¯¯¯¯¯¯¯¯¯¯¯¯¯¯¯¯¯¯¯¯¯¯¯¯¯¯¯¯¯¯¯¯¯¯¯¯¯¯¯¯¯¯¯¯¯¯¯¯¯¯¯¯¯¯¯¯¯

General
Complete name                            : Godzilla 1998 vA BR EAC3 VFF VFQ ENG 1080p x265 10Bits T0M.mkv
Format                                   : Matroska
Format version                           : Version 4
File size                                : 4.26 GiB
Duration                                 : 2 h 18 min
Overall bit rate                         : 4 392 kb/s
Movie name                               : Godzilla 1998 de Roland Emmerich avec Matthew Broderick, Jean Reno, Maria Pitillo, Hank Azaria, Kevin Dunn, Michael Lerner, Harry Shearer, Arabella Field, Vicki Lewis, Doug Savant, Malcolm Danare. Tout public (allocine=25836,imdb=tt0120685) T0M
Encoded date                             : UTC 2019-05-29 05:27:29
Writing application                      : mkvmerge v8.0.0 ('Til The Day That I Die') 64bit
Writing library                          : libebml v1.3.1 + libmatroska v1.4.2
Cover                                    : Yes
Attachments                              : Cover.jpg

Video
ID                                       : 1
Format                                   : HEVC
Format/Info                              : High Efficiency Video Coding
Format profile                           : Main [email protected]@Main
Codec ID                                 : V_MPEGH/ISO/HEVC
Duration                                 : 2 h 18 min
Bit rate                                 : 3 050 kb/s
Width                                    : 1 920 pixels
Height                                   : 800 pixels
Display aspect ratio                     : 2.40:1
Frame rate mode                          : Constant
Frame rate                               : 23.976 (24000/1001) FPS
Color space                              : YUV
Chroma subsampling                       : 4:2:0
Bit depth                                : 10 bits
Bits/(Pixel*Frame)                       : 0.083
Stream size                              : 2.96 GiB (69%)
Title                                    : Video HEVC 1920x800 @23.976 x265 [email protected]@Main 10bits 3050kbps 2pass veryslow 2709mn
Writing library                          : x265 2.9:[Windows][GCC 8.2.0][64 bit] 10bit
Encoding settings                        : cpuid=1111039 / frame-threads=3 / numa-pools=8 / wpp / no-pmode / no-pme / no-psnr / no-ssim / log-level=2 / input-csp=1 / input-res=1920x800 / interlace=0 / total-frames=0 / level-idc=0 / high-tier=1 / uhd-bd=0 / ref=5 / no-allow-non-conformance / no-repeat-headers / annexb / no-aud / no-hrd / info / hash=0 / no-temporal-layers / open-gop / min-keyint=24 / keyint=240 / gop-lookahead=0 / bframes=8 / b-adapt=2 / b-pyramid / bframe-bias=0 / rc-lookahead=120 / lookahead-slices=0 / scenecut=40 / radl=0 / no-intra-refresh / ctu=64 / min-cu-size=8 / rect / amp / max-tu-size=32 / tu-inter-depth=3 / tu-intra-depth=3 / limit-tu=4 / rdoq-level=2 / dynamic-rd=0.00 / no-ssim-rd / signhide / no-tskip / nr-intra=0 / nr-inter=0 / no-constrained-intra / strong-intra-smoothing / max-merge=4 / limit-refs=1 / limit-modes / me=3 / subme=4 / merange=57 / temporal-mvp / weightp / weightb / no-analyze-src-pics / deblock=0:0 / sao / no-sao-non-deblock / rd=6 / no-early-skip / rskip / no-fast-intra / no-tskip-fast / no-cu-lossless / b-intra / no-splitrd-skip / rdpenalty=0 / psy-rd=2.00 / psy-rdoq=1.00 / no-rd-refine / no-lossless / cbqpoffs=0 / crqpoffs=0 / rc=abr / bitrate=3050 / qcomp=0.60 / qpstep=4 / stats-write=0 / stats-Read=2 / cplxblur=20.0 / qblur=0.5 / ipratio=1.40 / pbratio=1.30 / aq-mode=1 / aq-strength=1.00 / cutree / zone-count=0 / no-strict-cbr / qg-size=32 / no-rc-grain / qpmax=69 / qpmin=0 / no-const-vbv / sar=1 / overscan=0 / videoformat=5 / range=0 / colorprim=1 / transfer=1 / colormatrix=1 / chromaloc=0 / display-window=0 / max-cll=0,0 / min-luma=0 / max-luma=1023 / log2-max-poc-lsb=8 / vui-timing-info / vui-hrd-info / slices=1 / no-opt-qp-pps / no-opt-ref-list-length-pps / no-multi-pass-opt-rps / scenecut-bias=0.05 / no-opt-cu-delta-qp / no-aq-motion / no-hdr / no-hdr-opt / no-dhdr10-opt / no-idr-recovery-sei / analysis-reuse-level=5 / scale-factor=0 / refine-intra=0 / refine-inter=0 / refine-mv=0 / no-limit-sao / ctu-info=0 / no-lowpass-dct / refine-mv-type=0 / copy-pic=1 / max-ausize-factor=1.0 / no-dynamic-refine / no-single-sei
Default                                  : Yes
Forced                                   : No
Color range                              : Limited
Color primaries                          : BT.709
Transfer characteristics                 : BT.709
Matrix coefficients                      : BT.709

Audio #1
ID                                       : 2
Format                                   : E-AC-3
Format/Info                              : Enhanced AC-3
Commercial name                          : Dolby Digital Plus
Codec ID                                 : A_EAC3
Duration                                 : 2 h 18 min
Bit rate mode                            : Constant
Bit rate                                 : 448 kb/s
Channel(s)                               : 6 channels
Channel layout                           : L R C LFE Ls Rs
Sampling rate                            : 48.0 kHz
Frame rate                               : 31.250 FPS (1536 SPF)
Compression mode                         : Lossy
Stream size                              : 445 MiB (10%)
Title                                    : Français 5.1 EAC3 448kbps 48khz 16bits
Language                                 : French
Service kind                             : Complete Main
Default                                  : Yes
Forced                                   : No

Audio #2
ID                                       : 3
Format                                   : AC-3
Format/Info                              : Audio Coding 3
Commercial name                          : Dolby Digital
Codec ID                                 : A_AC3
Duration                                 : 2 h 18 min
Bit rate mode                            : Constant
Bit rate                                 : 384 kb/s
Channel(s)                               : 6 channels
Channel layout                           : L R C LFE Ls Rs
Sampling rate                            : 48.0 kHz
Frame rate                               : 31.250 FPS (1536 SPF)
Bit depth                                : 16 bits
Compression mode                         : Lossy
Delay relative to video                  : 83 ms
Stream size                              : 381 MiB (9%)
Title                                    : Québécois 5.1 AC3 384kbps 48khz 16bits (saturation)
Language                                 : French
Service kind                             : Complete Main
Default                                  : No
Forced                                   : No

Audio #3
ID                                       : 4
Format                                   : E-AC-3
Format/Info                              : Enhanced AC-3
Commercial name                          : Dolby Digital Plus
Codec ID                                 : A_EAC3
Duration                                 : 2 h 18 min
Bit rate mode                            : Constant
Bit rate                                 : 448 kb/s
Channel(s)                               : 6 channels
Channel layout                           : L R C LFE Ls Rs
Sampling rate                            : 48.0 kHz
Frame rate                               : 31.250 FPS (1536 SPF)
Compression mode                         : Lossy
Stream size                              : 445 MiB (10%)
Title                                    : English 5.1 EAC3 448kbps 48khz 16bits
Language                                 : English
Service kind                             : Complete Main
Default                                  : No
Forced                                   : No

Text #1
ID                                       : 5
Format                                   : UTF-8
Codec ID                                 : S_TEXT/UTF8
Codec ID/Info                            : UTF-8 Plain Text
Duration                                 : 2 h 18 min
Bit rate                                 : 0 b/s
Count of elements                        : 22
Stream size                              : 635 Bytes (0%)
Title                                    : Français forcé (Passages)
Language                                 : French
Default                                  : Yes
Forced                                   : Yes

Text #2
ID                                       : 6
Format                                   : UTF-8
Codec ID                                 : S_TEXT/UTF8
Codec ID/Info                            : UTF-8 Plain Text
Duration                                 : 2 h 18 min
Bit rate                                 : 30 b/s
Count of elements                        : 891
Stream size                              : 31.2 KiB (0%)
Title                                    : Français complet (Tous le film)
Language                                 : French
Default                                  : No
Forced                                   : No

Text #3
ID                                       : 7
Format                                   : PGS
Muxing mode                              : zlib
Codec ID                                 : S_HDMV/PGS
Codec ID/Info                            : Picture based subtitle format used on BDs/HD-DVDs
Duration                                 : 2 h 14 min
Bit rate                                 : 7 593 b/s
Count of elements                        : 1766
Stream size                              : 7.32 MiB (0%)
Title                                    : Français forcé/complet PGS
Language                                 : French
Default                                  : No
Forced                                   : No

Text #4
ID                                       : 8
Format                                   : PGS
Muxing mode                              : zlib
Codec ID                                 : S_HDMV/PGS
Codec ID/Info                            : Picture based subtitle format used on BDs/HD-DVDs
Duration                                 : 2 h 12 min
Bit rate                                 : 15.9 kb/s
Count of elements                        : 2684
Stream size                              : 15.0 MiB (0%)
Title                                    : Français commentaire de Volker Engel et Karen Goulekas PGS
Language                                 : French
Default                                  : No
Forced                                   : No

Text #5
ID                                       : 9
Format                                   : PGS
Muxing mode                              : zlib
Codec ID                                 : S_HDMV/PGS
Codec ID/Info                            : Picture based subtitle format used on BDs/HD-DVDs
Duration                                 : 2 h 1 min
Bit rate                                 : 11.4 kb/s
Count of elements                        : 2084
Stream size                              : 9.90 MiB (0%)
Title                                    : English full (All the movie) PGS
Language                                 : English
Default                                  : No
Forced                                   : No

Text #6
ID                                       : 10
Format                                   : PGS
Muxing mode                              : zlib
Codec ID                                 : S_HDMV/PGS
Codec ID/Info                            : Picture based subtitle format used on BDs/HD-DVDs
Duration                                 : 2 h 9 min
Bit rate                                 : 7 053 b/s
Count of elements                        : 2460
Stream size                              : 6.52 MiB (0%)
Title                                    : English full SDH PGS
Language                                 : English
Default                                  : No
Forced                                   : No

Text #7
ID                                       : 11
Format                                   : PGS
Muxing mode                              : zlib
Codec ID                                 : S_HDMV/PGS
Codec ID/Info                            : Picture based subtitle format used on BDs/HD-DVDs
Duration                                 : 2 h 12 min
Bit rate                                 : 20.1 kb/s
Count of elements                        : 3379
Stream size                              : 19.1 MiB (0%)
Title                                    : English commentary by Volker Engel and Karen Goulekas PGS
Language                                 : English
Default                                  : No
Forced                                   : No

Menu
00:00:00.000                             : :01 - 00:00:00 - fr:Prologue - en:Start
00:07:48.426                             : :02 - 00:07:48 - fr:Cours de collision - en:Collision Course
00:17:25.461                             : :03 - 00:17:25 - fr:Monsieur vers de terre - en:Worm Guy
00:25:28.235                             : :04 - 00:25:28 - fr:Godzilla - en:Gojira
00:36:53.836                             : :05 - 00:36:53 - fr:À l'intérieur d'une empreinte - en:Inside a Footprint
00:41:48.214                             : :06 - 00:41:48 - fr:Réclamation d'assurance - en:Insurance Claim
00:48:19.730                             : :07 - 00:48:19 - fr:Progression difficile - en:Caught on Something
01:01:35.942                             : :08 - 01:01:35 - fr:Ça mord - en:I Got a Bite
01:11:06.095                             : :09 - 01:11:06 - fr:De nouveaux enfants en ville - en:New Kid in Town
01:21:38.685                             : :10 - 01:21:38 - fr:23ème rue - en:23Rd St. Station
01:30:26.212                             : :11 - 01:30:26 - fr:Madison Square Garden - en:Drawing Him Out
01:39:14.156                             : :12 - 01:39:14 - fr:Signaler le nid - en:Fire at Will: One
01:50:24.159                             : :13 - 01:50:24 - fr:Feu à volonté - en:Copter Chase
01:52:28.658                             : :14 - 01:52:28 - fr:Instinct maternel - en:He's Pregnant
02:00:36.771                             : :15 - 02:00:36 - fr:Piéger - en:Shaken, Not Stirred
02:05:56.882                             : :16 - 02:05:56 - fr:Godzilla est vaincu - en:Section Five
02:09:49.950                             : :17 - 02:09:49 - fr:Générique - en:End Credits



  User comments

No comments have been posted yet.


Post anonymous comment
:) :( :D :P :-) B) 8o :? 8) ;) :-* :-( :| O:-D :-@ :facepalm :o) brb :warn :help :bad :love :idea :bomb :!


CAPTCHA Image