Torrent details for "Godzilla King of the Monsters 2019 1080p WEB-DL x264 Dual Audio [Hindi - English] ESub [MW]"    Log in to bookmark

Loading...
Loading...
Torrent details
Cover
Download
Torrent rating (0 rated)
Controls:
Category:
Language:
English English
Total Size:
2.24 GB
Info Hash:
cc9a3685db56d33f6018849ba8f900d5a29136ae
Added By:
Added:  
14-08-2019 11:14
Views:
136
Health:
Seeds:
108
Leechers:
122
Completed:
204

File List (1) : 
Genre:
Action, Adventure, Fantasy, Sci-Fi
Runtime:
131 min    -    Rating: 6.9
Plot:
The new story follows the heroic efforts of the crypto-zoological agency Monarch as its members face off against a battery of god sized monsters, including the mighty Godzilla, who collides with Mothra, Rodan, and his ultimate nemesis, the three headed King Ghidorah. When these ancient superspecies, thought to be mere myths, rise again, they all vie for supremacy, leaving humanity's very existence hanging in the balance.

Description




General
Format                                   : Matroska
Format version                           : Version 4
File size                                : 2.24 GiB
Duration                                 : 2 h 11 min
Overall bit rate                         : 2 431 kb/s

Video
ID                                       : 1
Format                                   : AVC
Format/Info                              : Advanced Video Codec
Format profile                           : [email protected]
Format settings                          : CABAC / 4 Ref Frames
Format settings, CABAC                   : Yes
Format settings, Reference frames        : 4 frames
Codec ID                                 : V_MPEG4/ISO/AVC
Duration                                 : 2 h 11 min
Bit rate                                 : 2 200 kb/s
Width                                    : 1 920 pixels
Height                                   : 800 pixels
Display aspect ratio                     : 2.40:1
Frame rate mode                          : Constant
Frame rate                               : 23.976 (24000/1001) FPS
Color space                              : YUV
Chroma subsampling                       : 4:2:0
Bit depth                                : 8 bits
Scan type                                : Progressive
Bits/(Pixel*Frame)                       : 0.060
Stream size                              : 2.00 GiB (89%)
Writing library                          : x264 core 157 r2935 545de2f

Audio #1
ID                                       : 2
Format                                   : AAC LC
Codec ID                                 : A_AAC-2
Duration                                 : 2 h 11 min
Bit rate                                 : 128 kb/s
Channel(s)                               : 2 channels
Channel layout                           : L R
Sampling rate                            : 48.0 kHz
Frame rate                               : 46.875 FPS (1024 SPF)
Compression mode                         : Lossy
Stream size                              : 121 MiB (5%)
Language                                 : Hindi
Default                                  : Yes
Forced                                   : No

Audio #2
ID                                       : 3
Format                                   : AAC LC
Codec ID                                 : A_AAC-2
Duration                                 : 2 h 11 min
Bit rate                                 : 128 kb/s
Channel(s)                               : 2 channels
Channel layout                           : L R
Sampling rate                            : 48.0 kHz
Frame rate                               : 46.875 FPS (1024 SPF)
Compression mode                         : Lossy
Stream size                              : 121 MiB (5%)
Language                                 : English
Default                                  : No
Forced                                   : No

Text
ID                                       : 4
Format                                   : UTF-8
Codec ID                                 : S_TEXT/UTF8
Codec ID/Info                            : UTF-8 Plain Text
Duration                                 : 2 h 11 min
Bit rate                                 : 53 b/s
Count of elements                        : 1857
Stream size                              : 51.7 KiB (0%)
Language                                 : English
Default                                  : Yes
Forced                                   : No

It's Hindi Cleaned Audio


Click To View Image

https://pichub.site/image/hYKCJ
https://pichub.site/image/hYB48
https://pichub.site/image/hYgL5
https://pichub.site/image/hYmQh
https://pichub.site/image/hYGdj
https://pichub.site/image/hYNGr


  User comments

No comments have been posted yet.


Post anonymous comment
:) :( :D :P :-) B) 8o :? 8) ;) :-* :-( :| O:-D :-@ :facepalm :o) brb :warn :help :bad :love :idea :bomb :!


CAPTCHA Image