Torrent details for "The Passage S01E05 How You Gonna Outrun the End of the World 1080p 5.1 - 2.0 x264 Phun Psyz"    Log in to bookmark

Loading...
Loading...
Torrent details
Cover
Download
Torrent rating (0 rated)
Controls:
Category:
Language:
English English
Total Size:
737.31 MB
Info Hash:
e5dbdfab7163acfcada16d847212d344af5cd86d
Added By:
Added:  
12-02-2019 17:34
Views:
301
Health:
Seeds:
4
Leechers:
3
Completed:
1,347

File List (1) : 
Title:
Genre:
Action, Adventure, Drama, Fantasy, Horror, Sci-Fi
Runtime:
n/A    -    Rating: 8.8
Plot:
With the sudden arrival of a high ranking official, Horace Guilder, to Project NOAH, Brad and Amy begin to strategize a possible escape plan with the help of an unlikely accomplice. Meanwhile, Sykes and Richards begin to question each other's motives, and a shaky past between Lear, Elizabeth and Fanning is revealed.

Description
www.imdb.com/title/tt9252962/?ref_=ttep_ep5

Brad and Amy plot their escape with an unlikely accomplice when a high ranking official suddenly arrives at Project NOAH. Sykes and Richards begin questioning each other's motives.

Source: NTG (Amzn)







Format                      : MPEG-4
Format profile              : Base Media / Version 2
Codec ID                    : mp42 (isom/iso2/avc1/mp41)
File size                   : 737 MiB
Duration                    : 43 min 57 s
Overall bit rate mode       : Variable
Overall bit rate            : 2 345 kb/s
Writing application         : HandBrake 1.2.0 2018121700

Video
ID                          : 1
Format                      : AVC
Format/Info                 : Advanced Video Codec
Format profile              : [email protected]
Format settings             : CABAC / 1 Ref Frames
Format settings, CABAC      : Yes
Format settings, ReFrames   : 1 frame
Codec ID                    : avc1
Codec ID/Info               : Advanced Video Coding
Duration                    : 43 min 56 s
Bit rate                    : 1 858 kb/s
Width                       : 1 920 pixels
Height                      : 1 080 pixels
Display aspect ratio        : 16:9
Frame rate                  : 23.976 (24000/1001) FPS
Color space                 : YUV
Chroma subsampling          : 4:2:0
Bit depth                   : 8 bits
Scan type                   : Progressive
Bits/(Pixel*Frame)          : 0.037
Stream size                 : 584 MiB (79%)
Writing library             : x264 core 157 r2935 545de2f

Audio #1
ID                          : 2
Format                      : AC-3
Format/Info                 : Audio Coding 3
Commercial name             : Dolby Digital
Codec ID                    : ac-3
Duration                    : 43 min 57 s
Bit rate mode               : Constant
Bit rate                    : 320 kb/s
Channel(s)                  : 6 channels
Channel layout              : L R C LFE Ls Rs
Sampling rate               : 48.0 kHz
Frame rate                  : 31.250 FPS (1536 SPF)
Bit depth                   : 16 bits
Compression mode            : Lossy
Stream size                 : 101 MiB (14%)
Title                       : Surround
Language                    : English

Audio #2
ID                          : 3
Format                      : AAC LC
Format/Info                 : Advanced Audio Codec Low Complexity
Codec ID                    : mp4a-40-2
Duration                    : 43 min 57 s
Bit rate mode               : Constant
Bit rate                    : 160 kb/s
Channel(s)                  : 2 channels
Channel layout              : L R
Sampling rate               : 48.0 kHz
Frame rate                  : 46.875 FPS (1024 SPF)
Compression mode            : Lossy
Stream size                 : 50.3 MiB (7%)
Title                       : Stereo
Language                    : English

Text
Language                    : English
Default                     : Yes
Forced                      : No

Similar torrents

  User comments

No comments have been posted yet.


Post anonymous comment
:) :( :D :P :-) B) 8o :? 8) ;) :-* :-( :| O:-D :-@ :facepalm :o) brb :warn :help :bad :love :idea :bomb :!


CAPTCHA Image