Torrent details for "The Amazing Spider-Man (2012).720p.H264.italian.english.Ac3-5.1.sub.ita.eng-MIRCrew"

Loading...
Torrent details
Cover
Download
Torrent rating (0 rated)
Controls:
Category:
Language:
English English
Total Size:
2.71 GB
Info Hash:
9941d88cb6aeaba3cdcf00f723f6d940ad15de14
Added By:
Added:  
12-02-2019 18:00
Views:
55
Health:
Seeds:
5
Leechers:
3
Completed:
143

File List : 
Genre:
Action, Adventure, Sci-Fi
Runtime:
136 min    -    Rating: 7
Director:
Plot:
Peter Parker (Garfield) is an outcast high schooler who was abandoned by his parents as a boy, leaving him to be raised by his Uncle Ben (Sheen) and Aunt May (Field). Like most teenagers, Peter is trying to figure out who he is and how he got to be the person he is today. Peter is also finding his way with his first high school crush, Gwen Stacy (Stone), and together, they struggle with love, commitment, and secrets. As Peter discovers a mysterious briefcase that belonged to his father, he begins a quest to understand his parents' disappearance - leading him directly to Oscorp and the lab of Dr. Curt Connors (Ifans), his father's former partner. As Spider-Man is set on a collision course with Connors' alter-ego, The Lizard, Peter will make life-altering choices to use his powers and shape his destiny to become a hero.

Description
The Amazing Spider-Man (2012).720p.H264.italian.english.Ac3-5.1.sub.ita.eng-MIRCrew




NO FOUND ONLY ORIGINAL RELEASE

My release is always in double track audio italian and Original audio
for select it use VLC or dvd player home
not use wmp

The Amazing Spider-Man (2012)

Quality MIRCrew on HD 720p da  2,7 gb










Paese di produzione Stati Uniti d'America
Anno 2012
Durata 136 min
Rapporto 2,35:1
Genere azione, fantascienza, drammatico, avventura
Regia Marc Webb
Soggetto James Vanderbilt, dal fumetto della Marvel creato da Stan Lee & Steve Ditko
Sceneggiatura James Vanderbilt, Alvin Sargent, Steve Kloves



Andrew Garfield: Peter Parker / Spider-Man
Rhys Ifans: Curt Connors / Lizard
Emma Stone: Gwen Stacy
Denis Leary: cap. George Stacy
Campbell Scott: Richard Parker
Martin Sheen: Ben Parker
Sally Field: May Parker
Irrfan Khan: dott. Ratha
Chris Zylka: Flash Thompson
Kary Coleman: Helen Stacy
C. Thomas Howell: Ray
Charlie DePew: Philip Stacy
Jacob Rodier: Simon Stacy
Skyler Gisondo: Howard Stacy
Embeth Davidtz: Mary Parker
Michael Massee: dirigente della Oscorp
Stan Lee: bibliotecario della Midtown Science High School



Dopo un tentativo di furto nella casa dei genitori, il piccolo Peter Parker viene affidato agli zii paterni, Ben e May Parker. Rimasto orfano a causa di un misterioso incidente aereo che uccide i suoi genitori, Peter cresce a casa degli zii.



Peter Parker (Garfield) is an outcast high schooler who was abandoned by his parents as a boy, leaving him to be raised by his Uncle Ben (Sheen) and Aunt May (Field). Like most teenagers, Peter is trying to figure out who he is and how he got to be the person he is today.




General
Unique ID                                : 252551713169048729312511953920343233348 (0xBDFFB0D10CEA462AB5FA93415AED5344)
Complete name                            : The Amazing Spider-Man (2012).720p.h264.ita.eng.sub.ita.eng-MIRCrew\The Amazing Spider-Man (2012).720p.h264.ita.eng.sub.ita.eng-MIRCrew.mkv
Format                                   : Matroska
Format version                           : Version 2
File size                                : 2.69 GiB
Duration                                 : 2h 16mn
Overall bit rate                         : 2 828 Kbps
Movie name                               : MIRCrew
Encoded date                             : UTC 2019-01-01T22:09:47Z
Writing application                      : mkvmerge v5.4.0 ('Piper') built on Mar 10 2012 13:34:39
Writing library                          : Lavf55.12.0

Video
ID                                       : 1
Format                                   : AVC
Format/Info                              : Advanced Video Codec
Format profile                           : [email protected]
Format settings, CABAC                   : Yes
Format settings, ReFrames                : 4 frames
Codec ID                                 : V_MPEG4/ISO/AVC
Duration                                 : 2h 16mn
Bit rate                                 : 2 000 Kbps
Width                                    : 1 280 pixels
Height                                   : 528 pixels
Display aspect ratio                     : 2.40:1
Frame rate                               : 23.976 fps
Color space                              : YUV
Chroma subsampling                       : 4:2:0
Bit depth                                : 8 bits
Scan type                                : Progressive
Bits/(Pixel*Frame)                       : 0.123
Stream size                              : 1.85 GiB (69%)
Title                                    : MIRCrew
Writing library                          : x264 core 142 r2479 dd79a61
Encoding settings                        : cabac=1 / ref=1 / deblock=1:0:0 / analyse=0x3:0x113 / me=hex / subme=2 / psy=1 / psy_rd=1.00:0.00 / mixed_ref=0 / me_range=16 / chroma_me=1 / trellis=0 / 8x8dct=1 / cqm=0 / deadzone=21,11 / fast_pskip=1 / chroma_qp_offset=0 / threads=6 / lookahead_threads=2 / sliced_threads=0 / nr=0 / decimate=1 / interlaced=0 / bluray_compat=0 / constrained_intra=0 / bframes=3 / b_pyramid=2 / b_adapt=1 / b_bias=0 / direct=1 / weightb=1 / open_gop=0 / weightp=1 / keyint=240 / keyint_min=24 / scenecut=40 / intra_refresh=0 / rc_lookahead=10 / rc=abr / mbtree=1 / bitrate=2000 / ratetol=1.0 / qcomp=0.60 / qpmin=0 / qpmax=69 / qpstep=4 / vbv_maxrate=62500 / vbv_bufsize=78125 / nal_hrd=none / filler=0 / ip_ratio=1.40 / aq=1:1.00
Language                                 : Italian
Default                                  : Yes
Forced                                   : No
Color primaries                          : BT.709-5, BT.1361, IEC 61966-2-4, SMPTE RP177
Transfer characteristics                 : BT.709-5, BT.1361
Matrix coefficients                      : BT.709-5, BT.1361, IEC 61966-2-4 709, SMPTE RP177

Audio #1
ID                                       : 2
Format                                   : AC-3
Format/Info                              : Audio Coding 3
Mode extension                           : CM (complete main)
Codec ID                                 : A_AC3
Duration                                 : 2h 16mn
Bit rate mode                            : Constant
Bit rate                                 : 448 Kbps
Channel(s)                               : 6 channels
Channel positions                        : Front: L C R, Side: L R, LFE
Sampling rate                            : 48.0 KHz
Bit depth                                : 16 bits
Compression mode                         : Lossy
Delay relative to video                  : -5ms
Stream size                              : 437 MiB (16%)
Title                                    : Ita Ac3 5.1
Language                                 : Italian
Default                                  : Yes
Forced                                   : No

Audio #2
ID                                       : 3
Format                                   : AC-3
Format/Info                              : Audio Coding 3
Mode extension                           : CM (complete main)
Codec ID                                 : A_AC3
Duration                                 : 2h 16mn
Bit rate mode                            : Constant
Bit rate                                 : 384 Kbps
Channel(s)                               : 6 channels
Channel positions                        : Front: L C R, Side: L R, LFE
Sampling rate                            : 48.0 KHz
Bit depth                                : 16 bits
Compression mode                         : Lossy
Delay relative to video                  : -5ms
Stream size                              : 374 MiB (14%)
Title                                    : Eng Ac3 5.1
Language                                 : English
Default                                  : No
Forced                                   : No


Similar torrents

  No similar torrents were found.

  User comments

No comments have been posted yet.


Post anonymous comment
:) :( :D :P :-) B) 8o :? 8) ;) :-* :-( :| O:-D :-@ :o) brb :warn :help :bad :love :idea :bomb :!


CAPTCHA Image